<?xml version="1.0" standalone="no"?>
<!DOCTYPE svg PUBLIC "-//W3C//DTD SVG 1.1//EN" "http://www.w3.org/Graphics/SVG/1.1/DTD/svg11.dtd" >
<svg xmlns="http://www.w3.org/2000/svg">
<metadata>Generated by IcoMoon</metadata>
<defs>
<font id="JuSidebarIcon" horiz-adv-x="1024">
<font-face units-per-em="1024" ascent="960" descent="-64" />
<missing-glyph horiz-adv-x="1024" />
<glyph unicode="&#x20;" horiz-adv-x="512" d="" />
<glyph unicode="&#xe900;" glyph-name="home" d="M256 128h128v256h256v-256h128v384l-256 192-256-192v-384zM170.667 42.667v512l341.333 256 341.333-256v-512h-298.667v256h-85.333v-256h-298.667z" />
<glyph unicode="&#xe901;" glyph-name="image" d="M213.333 42.667c-23.467 0-43.555 8.354-60.267 25.067s-25.067 36.8-25.067 60.267v597.333c0 23.467 8.355 43.555 25.067 60.267s36.8 25.067 60.267 25.067h597.333c23.467 0 43.554-8.355 60.267-25.067s25.067-36.8 25.067-60.267v-597.333c0-23.467-8.354-43.554-25.067-60.267s-36.8-25.067-60.267-25.067h-597.333zM213.333 128h597.333v597.333h-597.333v-597.333zM256 213.334h512l-160 213.333-128-170.667-96 128-128-170.667z" />
<glyph unicode="&#xe902;" glyph-name="gallery-add" d="M213.333 42.667c-23.467 0-43.555 8.354-60.267 25.067s-25.067 36.8-25.067 60.267v597.333c0 23.467 8.355 43.555 25.067 60.267s36.8 25.067 60.267 25.067h341.333v-85.333h-341.333v-597.333h597.333v341.333h85.333v-341.333c0-23.467-8.354-43.554-25.067-60.267s-36.8-25.067-60.267-25.067h-597.333zM256 213.334h512l-160 213.333-128-170.667-96 128-128-170.667zM725.333 554.667v85.333h-85.333v85.333h85.333v85.333h85.333v-85.333h85.333v-85.333h-85.333v-85.333h-85.333z" />
<glyph unicode="&#xe903;" glyph-name="photo" d="M512 192c53.333 0 98.667 18.667 136 56s56 82.667 56 136c0 53.333-18.667 98.667-56 136s-82.667 56-136 56c-53.333 0-98.667-18.667-136-56s-56-82.667-56-136c0-53.333 18.667-98.667 56-136s82.667-56 136-56zM512 277.334c-29.867 0-55.113 10.313-75.733 30.933-20.622 20.621-30.933 45.867-30.933 75.733s10.311 55.113 30.933 75.733c20.621 20.621 45.867 30.933 75.733 30.933s55.113-10.313 75.733-30.933c20.621-20.621 30.933-45.867 30.933-75.733s-10.313-55.113-30.933-75.733c-20.621-20.621-45.867-30.933-75.733-30.933zM170.667 42.667c-23.467 0-43.555 8.354-60.267 25.067s-25.067 36.8-25.067 60.267v512c0 23.467 8.355 43.555 25.067 60.267s36.8 25.067 60.267 25.067h134.4l78.933 85.333h256l78.933-85.333h134.4c23.467 0 43.554-8.355 60.267-25.067s25.067-36.8 25.067-60.267v-512c0-23.467-8.354-43.554-25.067-60.267s-36.8-25.067-60.267-25.067h-682.667zM170.667 128h682.667v512h-172.8l-77.867 85.333h-181.333l-77.867-85.333h-172.8v-512z" />
<glyph unicode="&#xe904;" glyph-name="design-services" d="M894.72 628.481c16.64 16.64 16.64 43.52 0 60.16l-120.747 120.747c-16.64 16.64-43.52 16.64-60.16 0l-191.573-191.573-165.973 165.973c-33.28 33.28-87.467 33.28-120.747 0l-81.067-81.067c-33.28-33.28-33.28-87.467 0-120.747l165.973-165.974-192.427-192.427v-180.907h180.907l192.853 192.853 165.973-165.973c40.533-40.533 95.147-25.6 120.747 0l81.067 81.067c33.28 33.28 33.28 87.467 0 120.747l-165.973 165.973 191.147 191.147zM215.040 642.561l80.64 81.067 54.187-54.187-50.347-50.773 60.16-60.16 50.773 50.773 51.2-51.2-81.067-81.067-165.547 165.547zM694.187 325.12l-50.773-50.773 60.16-60.16 50.773 50.773 54.187-54.187-81.067-81.067-165.973 165.973 81.067 81.067 51.627-51.627zM273.493 128h-60.16v60.16l410.027 410.027 60.16-60.16-410.027-410.027zM683.52 658.774l60.16 60.16 60.16-60.16-60.16-60.16-60.16 60.16z" />
<glyph unicode="&#xe905;" glyph-name="abc" d="M725.333 298.667c-12.087 0-22.221 4.087-30.4 12.267s-12.267 18.313-12.267 30.4v170.667c0 12.089 4.087 22.222 12.267 30.4s18.313 12.267 30.4 12.267h128c12.087 0 22.221-4.089 30.4-12.267s12.267-18.311 12.267-30.4v-42.667h-64v21.333h-85.333v-128h85.333v21.333h64v-42.667c0-12.087-4.087-22.221-12.267-30.4s-18.313-12.267-30.4-12.267h-128zM405.333 298.667v256h170.667c12.087 0 22.221-4.089 30.4-12.267s12.267-18.311 12.267-30.4v-42.667c0-12.087-4.087-22.221-12.267-30.4s-18.313-12.267-30.4-12.267c12.087 0 22.221-4.087 30.4-12.267s12.267-18.313 12.267-30.4v-42.667c0-12.087-4.087-22.221-12.267-30.4s-18.313-12.267-30.4-12.267h-170.667zM469.333 458.667h85.333v32h-85.333v-32zM469.333 362.667h85.333v32h-85.333v-32zM128 298.667v213.333c0 12.089 4.089 22.222 12.267 30.4s18.311 12.267 30.4 12.267h128c12.089 0 22.222-4.089 30.4-12.267s12.267-18.311 12.267-30.4v-213.333h-64v64h-85.333v-64h-64zM192 426.667h85.333v64h-85.333v-64z" />
<glyph unicode="&#xe906;" glyph-name="import-export" d="M341.333 384v306.133l-109.867-109.867-60.8 59.733 213.333 213.333 213.333-213.333-60.8-59.733-109.867 109.867v-306.133h-85.333zM640-0l-213.333 213.333 60.8 59.733 109.867-109.867v306.133h85.333v-306.133l109.867 109.867 60.8-59.733-213.333-213.333z" />
<glyph unicode="&#xe907;" glyph-name="sync" d="M170.667 85.334v85.333h117.333l-17.067 14.933c-36.978 32.713-62.933 70.046-77.867 112s-22.4 84.267-22.4 126.933c0 78.933 23.645 149.155 70.933 210.667s108.978 102.222 185.067 122.133v-89.6c-51.2-18.489-92.445-49.955-123.733-94.4s-46.933-94.046-46.933-148.8c0-32 6.045-63.113 18.133-93.333s30.933-58.133 56.533-83.733l10.667-10.667v104.533h85.333v-256h-256zM597.333 96v89.6c51.2 18.487 92.446 49.954 123.733 94.4s46.933 94.046 46.933 148.8c0 32-6.046 63.113-18.133 93.333-12.087 30.222-30.933 58.133-56.533 83.733l-10.667 10.667v-104.533h-85.333v256h256v-85.333h-117.333l17.067-14.933c34.846-34.845 60.267-72.711 76.267-113.6s24-82.667 24-125.333c0-78.933-23.646-149.154-70.933-210.667s-108.979-102.221-185.067-122.133z" />
<glyph unicode="&#xe908;" glyph-name="refresh" d="M512 85.334c-95.289 0-176 33.067-242.133 99.2s-99.2 146.846-99.2 242.133c0 95.289 33.067 176 99.2 242.133s146.845 99.2 242.133 99.2c49.067 0 96-10.133 140.8-30.4s83.2-49.245 115.2-86.933v117.333h85.333v-298.667h-298.667v85.333h179.2c-22.754 39.822-53.867 71.111-93.333 93.867s-82.313 34.133-128.533 34.133c-71.113 0-131.555-24.889-181.333-74.667s-74.667-110.221-74.667-181.333c0-71.113 24.889-131.554 74.667-181.333s110.221-74.667 181.333-74.667c54.754 0 104.179 15.646 148.267 46.933s75.021 72.533 92.8 123.733h89.6c-19.913-75.379-60.446-136.887-121.6-184.533s-130.846-71.467-209.067-71.467z" />
<glyph unicode="&#xe909;" glyph-name="folder" d="M170.667 85.334c-23.467 0-43.555 8.354-60.267 25.067s-25.067 36.8-25.067 60.267v512c0 23.467 8.355 43.555 25.067 60.267s36.8 25.067 60.267 25.067h256l85.333-85.333h341.333c23.467 0 43.554-8.355 60.267-25.067s25.067-36.8 25.067-60.267v-426.667c0-23.467-8.354-43.554-25.067-60.267s-36.8-25.067-60.267-25.067h-682.667zM170.667 170.667h682.667v426.667h-376.533l-85.333 85.333h-220.8v-512z" />
<glyph unicode="&#xe90a;" glyph-name="img-compression" d="M554.667 42.667h-341.333c-23.467 0-43.555 8.354-60.267 25.067s-25.067 36.8-25.067 60.267v341.333h426.667v-426.667zM170.667 128h341.333l-110.933 149.333-81.067-106.667-59.733 78.933-89.6-121.6zM213.333 725.334h-85.333c0 23.467 8.355 43.555 25.067 60.267s36.8 25.067 60.267 25.067v-85.333zM298.667 725.334v85.333h85.333v-85.333h-85.333zM469.333 725.334v85.333h85.333v-85.333h-85.333zM640 725.334v85.333h85.333v-85.333h-85.333zM640 42.667v85.333h85.333v-85.333h-85.333zM810.667 725.334v85.333c23.467 0 43.554-8.355 60.267-25.067s25.067-36.8 25.067-60.267h-85.333zM128 554.667v85.333h85.333v-85.333h-85.333zM810.667 128h85.333c0-23.467-8.354-43.554-25.067-60.267s-36.8-25.067-60.267-25.067v85.333zM810.667 213.334v85.333h85.333v-85.333h-85.333zM810.667 384v85.333h85.333v-85.333h-85.333zM810.667 554.667v85.333h85.333v-85.333h-85.333z" />
<glyph unicode="&#xe90b;" glyph-name="cloud" d="M277.333 85.334c-64.711 0-120 22.4-165.867 67.2s-68.8 99.554-68.8 164.267c0 55.467 16.711 104.887 50.133 148.267s77.155 71.111 131.2 83.2c17.778 65.422 53.333 118.4 106.667 158.933s113.779 60.8 181.333 60.8c83.2 0 153.779-28.978 211.733-86.933s86.933-128.533 86.933-211.733c49.067-5.687 89.779-26.846 122.133-63.467s48.533-79.467 48.533-128.533c0-53.333-18.667-98.667-56-136s-82.667-56-136-56h-512zM277.333 170.667h512c29.867 0 55.113 10.313 75.733 30.933s30.933 45.867 30.933 75.733c0 29.867-10.313 55.113-30.933 75.733s-45.867 30.933-75.733 30.933h-64v85.333c0 59.022-20.8 109.333-62.4 150.933s-91.913 62.4-150.933 62.4c-59.021 0-109.333-20.8-150.933-62.4s-62.4-91.911-62.4-150.933h-21.333c-41.245 0-76.445-14.579-105.6-43.733s-43.733-64.354-43.733-105.6c0-41.246 14.578-76.446 43.733-105.6s64.355-43.733 105.6-43.733z" />
<glyph unicode="&#xe90c;" glyph-name="translate" d="M549.12 295.68l-108.373 107.093 1.28 1.28c74.24 82.773 127.147 177.92 158.293 278.613h125.013v85.333h-298.667v85.333h-85.333v-85.333h-298.667v-84.907h476.587c-28.587-82.347-73.813-160.427-135.253-228.693-39.68 43.947-72.533 92.16-98.56 142.933h-85.333c31.147-69.547 73.813-135.253 127.147-194.56l-217.173-214.187 60.587-60.587 213.333 213.333 132.693-132.693 32.427 87.040zM789.333 512h-85.333l-192-512h85.333l47.787 128h202.667l48.213-128h85.333l-192 512zM677.547 213.334l69.12 184.747 69.12-184.747h-138.24z" />
<glyph unicode="&#xe90d;" glyph-name="shield" d="M467.2 275.2l241.067 241.067-60.8 60.8-180.267-180.267-89.6 89.6-60.8-60.8 150.4-150.4zM512-0c-98.845 24.887-180.445 81.6-244.8 170.133s-96.533 186.846-96.533 294.933v260.267l341.333 128 341.333-128v-260.267c0-108.087-32.179-206.4-96.533-294.933s-145.954-145.246-244.8-170.133zM512 89.6c73.954 23.467 135.113 70.4 183.467 140.8s72.533 148.621 72.533 234.667v201.6l-256 96-256-96v-201.6c0-86.046 24.178-164.267 72.533-234.667s109.513-117.333 183.467-140.8z" />
<glyph unicode="&#xe90e;" glyph-name="search-icon" d="M597.333 256c-71.113 0-131.554 24.887-181.333 74.667s-74.667 110.221-74.667 181.333c0 71.111 24.889 131.555 74.667 181.333s110.221 74.667 181.333 74.667 131.554-24.889 181.333-74.667c49.779-49.778 74.667-110.222 74.667-181.333 0-71.113-24.887-131.554-74.667-181.333s-110.221-74.667-181.333-74.667zM597.333 170.667c95.287 0 176 33.067 242.133 99.2s99.2 146.846 99.2 242.133c0 95.289-33.067 176-99.2 242.133s-146.846 99.2-242.133 99.2c-95.287 0-176-33.067-242.133-99.2s-99.2-146.845-99.2-242.133c0-39.821 6.215-77.342 18.645-112.555s30.037-67.383 52.821-96.512l-242.133-243.2 59.733-59.733 243.2 242.133c29.155-22.754 61.325-40.363 96.512-52.821s72.704-18.675 112.555-18.645z" />
<glyph unicode="&#xe90f;" glyph-name="AI" d="M627.251 541.917l311.415-115.25-311.415-115.251-115.251-311.415-115.25 311.415-311.417 115.251 311.417 115.25 115.25 311.417 115.251-311.417zM263.458 178.125l77.875-28.791-77.875-28.791-28.791-77.875-28.791 77.875-77.875 28.791 77.875 28.791 28.791 77.875 28.791-77.875zM463.168 475.499l-131.959-48.832 131.959-48.832 48.832-131.917 48.832 131.917 131.917 48.832-131.917 48.832-48.832 131.959-48.832-131.959zM829.666 744.334l109.001-40.333-109.001-40.333-40.333-109-40.333 109-109.001 40.333 109.001 40.333 40.333 109 40.333-109z" />
<glyph unicode="&#xe910;" glyph-name="collapse-icon" d="M508.582 764.586l-337.92-337.919 337.92-337.92 60.163 60.585-234.669 234.665h604.589v85.336h-604.589l234.669 234.667-60.163 60.586zM170.662 426.667v-426.67h-85.333v853.336h85.333v-426.665z" />
<glyph unicode="&#xe911;" glyph-name="expand-icon" d="M515.405 764.586l337.92-337.919-337.92-337.92-60.16 60.585 234.665 234.665h-604.585v85.336h604.585l-234.665 234.667 60.16 60.586zM853.325 426.667v-426.67h85.335v853.336h-85.335v-426.665z" />
<glyph unicode="&#xe912;" glyph-name="chevron-down" d="M755.2 512l-256-256-256.002 256 59.733 59.733 196.269-196.267 196.267 196.267 59.733-59.733z" />
<glyph unicode="&#xe913;" glyph-name="chevron-up" d="M243.198 341.334l256.002 256 256-256-59.733-59.733-196.267 196.267-196.269-196.267-59.733 59.733z" />
<glyph unicode="&#xe914;" glyph-name="check" d="M407.467 170.667l-243.2 243.2 60.8 60.8 182.4-182.4 391.467 391.466 60.8-60.8-452.267-452.266z" />
<glyph unicode="&#xe915;" glyph-name="close" d="M358.4 213.334l-59.733 59.733 153.6 153.6-153.6 152.534 59.733 59.733 153.6-153.6 152.533 153.6 59.733-59.733-153.6-152.534 153.6-153.6-59.733-59.733-152.533 153.6-153.6-153.6z" />
<glyph unicode="&#xe916;" glyph-name="warning" d="M512 683.094l321.28-555.093h-642.56l321.28 555.093zM512 853.334l-469.333-810.667h938.667l-469.333 810.667zM554.667 256h-85.333v-85.333h85.333v85.333zM554.667 512h-85.333v-170.667h85.333v170.667z" />
<glyph unicode="&#xe917;" glyph-name="error" d="M671.147 810.667h-318.293l-224.853-224.853v-318.293l224.853-224.853h318.293l224.853 224.853v318.293l-224.853 224.853zM810.667 302.934l-174.933-174.933h-247.467l-174.933 174.933v247.467l174.933 174.933h247.467l174.933-174.933v-247.467zM512 213.334c23.565 0 42.667 19.102 42.667 42.667s-19.102 42.667-42.667 42.667c-23.565 0-42.667-19.102-42.667-42.667s19.102-42.667 42.667-42.667zM469.333 640h85.333v-298.667h-85.333v298.667z" />
</font>
</defs>
</svg>
